ExtraTorrent.st - The Largest Bittorent System
Latest Articles
Most searched
Hot torrents
New Movies
Hot torrents
Foreign
ExtraTorrent.st > Categories > Anime torrents > English-translated torrents


Browse Anime torrents

[ENTE] Bleach (2004) S09-S16 (E168-E366) [AV1] [OPUS] [BD US] [720p] torrent


Download torrent: Magnet link
Info hash: 24CD0949EF8A432615E84E8D64781FADDF75C67B
Category: Categories > Anime torrents > English-translated torrents
Trackers:
http://anidex.moe:6969/announce
udp://open.stealth.si:80/announce
udp://tracker.opentrackr.org:1337/announce
udp://tracker.torrent.eu.org:451/announce
udp://tracker.openbittorrent.com:6969/announce
http://tracker.openbittorrent.com:80/announce
udp://www.torrent.eu.org:451/announce
udp://tracker.leechers-paradise.org:6969/announce
udp://tracker.coppersurfer.tk:6969/announce
udp://tracker.zer0day.to:1337/announce
udp://eddie4.nl:6969/announce
udp://tracker.opentrackr.org:1337/announce
http://tracker.openbittorrent.com:80/announce
udp://opentracker.i2p.rocks:6969/announce
udp://tracker.internetwarriors.net:1337/announce
udp://tracker.leechers-paradise.org:6969/announce
udp://coppersurfer.tk:6969/announce
udp://tracker.zer0day.to:1337/announce
Health:
 seeds: 10, leechers: 5
Torrent language: English English
Total Size: 25.7 GB
Number of files:
199   
Uploader:
LOLer
Torrent added:2023-01-23 21:06:26

Download [ENTE] Bleach (2004) S09-S16 (E168-E366) [AV1] [OPUS] [BD US] [720p] torrent




Torrent Description
AV1 encode of ReinForce's Bleach BDRip (Viz US).

Added English subtitles (VIZ's SUP image format).


Notes:

While I strive to encode and release by seasons for granularity and consistent indexing. It became untenable for me to keep all individual 16 season torrents alive for BLEACH.

I gave the files a light refresh by correcting metadata and applying the up-to-date naming scheme.

I will not touch this version of BLEACH (576p+720p) beyond this point. But the JP release encode is already in the pipeline for the future (months away, at soonest).


General
Unique ID : 83591904975958394102030108882616196983 (0x3EE3371D4177BF1F002260ABEF041F77)
Complete name : [ENTE] Bleach (2004) S16E01 [AV1] [OPUS] [BD US] [720p] [6691B741].mkv
Format : Matroska
Format version : Version 4
File size : 139 MiB
Duration : 24 min 26 s
Overall bit rate : 796 kb/s
Encoded date : UTC 2023-01-23 19:13:37
Writing application : mkvmerge v60.0.0 ('Are We Copies?') 64-bit
Writing library : libebml v1.4.2 + libmatroska v1.6.3

Video
ID : 1
Format : AV1
Format/Info : AOMedia Video 1
Format profile : [email protected]
Codec ID : V_AV1
Duration : 24 min 26 s
Bit rate : 631 kb/s
Width : 1 280 pixels
Height : 720 pixels
Display aspect ratio : 16:9
Frame rate mode : Variable
Frame rate : 29.970 FPS
Color space : YUV
Chroma subsampling : 4:2:0
Bit depth : 10 bits
Bits/(Pixel*Frame) : 0.023
Stream size : 110 MiB (79%)
Default : Yes
Forced : No
Color range : Limited
Color primaries : BT.709
Transfer characteristics : BT.709
Matrix coefficients : BT.709

Audio
ID : 2
Format : Opus
Codec ID : A_OPUS
Duration : 24 min 26 s
Bit rate : 152 kb/s
Channel(s) : 2 channels
Channel layout : L R
Sampling rate : 48.0 kHz
Frame rate : 50.000 FPS (960 SPF)
Bit depth : 32 bits
Compression mode : Lossy
Delay relative to video : -7 ms
Stream size : 26.6 MiB (19%)
Default : Yes
Forced : No

Text
ID : 3
Format : PGS
Muxing mode : zlib
Codec ID : S_HDMV/PGS
Codec ID/Info : Picture based subtitle format used on BDs/HD-DVDs
Duration : 24 min 20 s
Bit rate : 36.5 kb/s
Count of elements : 815
Stream size : 6.35 MiB (5%)
Language : English
Default : Yes
Forced : No

Download [ENTE] Bleach (2004) S09-S16 (E168-E366) [AV1] [OPUS] [BD US] [720p] torrent


Related Torrents

Added  Size  Health
Download Magnet link   [ENTE] Bleach (2004) S01-S08 (E001-E167) [AV1] [OPUS] [DVD] [576p] in English-translated , by
DopeyBeads
1w 16.3 GB 10 11




Home - Browse Torrents
ExtraTorrent.st is in compliance with copyrights
2021 ExtraTorrent.st