ExtraTorrent.st - The Largest Bittorent System
Latest Articles
Most searched
Hot torrents
New Movies
Hot torrents
Foreign
ExtraTorrent.st > Categories > Anime torrents > English-translated torrents


Browse Anime torrents

[ENTE] Bleach (2004) S01-S08 (E001-E167) [AV1] [OPUS] [DVD] [576p] torrent


Download torrent: Magnet link
Info hash: 8043980AF9B9B0F0BAA8D1D837D9890C740E4CDA
Category: Categories > Anime torrents > English-translated torrents
Trackers:
http://anidex.moe:6969/announce
udp://open.stealth.si:80/announce
udp://tracker.opentrackr.org:1337/announce
udp://tracker.torrent.eu.org:451/announce
udp://tracker.openbittorrent.com:6969/announce
http://tracker.openbittorrent.com:80/announce
udp://www.torrent.eu.org:451/announce
udp://tracker.leechers-paradise.org:6969/announce
udp://tracker.coppersurfer.tk:6969/announce
udp://tracker.zer0day.to:1337/announce
udp://eddie4.nl:6969/announce
udp://tracker.opentrackr.org:1337/announce
http://tracker.openbittorrent.com:80/announce
udp://opentracker.i2p.rocks:6969/announce
udp://tracker.internetwarriors.net:1337/announce
udp://tracker.leechers-paradise.org:6969/announce
udp://coppersurfer.tk:6969/announce
udp://tracker.zer0day.to:1337/announce
Health:
 seeds: 10, leechers: 11
Torrent language: English English
Total Size: 16.3 GB
Number of files:
167   
Uploader:
DopeyBeads
Torrent added:2023-01-23 20:12:28

Download [ENTE] Bleach (2004) S01-S08 (E001-E167) [AV1] [OPUS] [DVD] [576p] torrent




Torrent Description
AV1 encode of SOFCJ-Raws' Bleach DVDRip (E001-E167).

Added ENG subtitles (ParanDark). Verified attachments.


Notes:

While I strive to encode and release by seasons for granularity and consistent indexing. It became untenable for me to keep all individual 16 season torrents alive for BLEACH.

I gave the files a light refresh by correcting metadata and applying the up-to-date naming scheme.

I will not touch this version of BLEACH (576p+720p) beyond this point. But the JP release encode is already in the pipeline for the future (months away, at soonest).


General
Unique ID : 47187514834078833557596455670465059744 (0x237FFC1AAC9C68DC349C9A67A38A5BA0)
Complete name : [ENTE] Bleach (2004) S01E01 [AV1] [OPUS] [DVD] [576p] [6D5B5AA7].mkv
Format : Matroska
Format version : Version 4
File size : 90.7 MiB
Duration : 22 min 51 s
Overall bit rate : 555 kb/s
Encoded date : UTC 2023-01-21 20:57:26
Writing application : mkvmerge v60.0.0 ('Are We Copies?') 64-bit
Writing library : libebml v1.4.2 + libmatroska v1.6.3
Attachments : 75749_.TTF / akbar.TTF / ANDREWSC.TTF / ARNOI.TTF / ARNORG_.TTF / Artbrush.ttf / ASTONISHED.TTF / Chinela Brush.ttf / Chubby_Cheeks_Regular.TTF / CLOCKWOR.TTF / CONFN__.TTF / D3Streetism.TTF / DFGanShinKei-W7.ttf / DFGCraftSuW9-En.ttf / DFMrg9_0.ttc / Eager Naturalist.ttf / Embryonic-Inside-RegularM.ttf / ExpletiveDeleted.ttf / Express.ttf / FRGROT.TTF / HGPKakuPopTai-CP.ttf / hipch__.ttf / INTERNATIONALPLAYBOY.TTF / JandaAmazingGrace-Regular.ttf / lousy.ttf / LT_3.ttf / Marker_SD_Regular.ttf / Montara-Gothic.ttf / MTCORSVA.TTF / olivier.ttf / Paper Johnny Eins.ttf / Passing Notes.ttf / QlassikBold_TB.otf / RaleighLTStd-Medium.otf / Smilecomix.ttf / SMLFATMARKER.ttf / sns3.otf / SRF2.ttf / StayPuft.ttf / SubwayNovellaDEMO.ttf / SWINSBRG.TTF / TektonPro-BoldCond.otf / TheWorldIsYours_Bold.ttf / UDDigiKyokashoN-R.ttc / vademecu.ttf

Video
ID : 1
Format : AV1
Format/Info : AOMedia Video 1
Format profile : [email protected]
Codec ID : V_AV1
Duration : 22 min 51 s
Bit rate : 302 kb/s
Width : 768 pixels
Height : 576 pixels
Display aspect ratio : 4:3
Frame rate mode : Variable
Frame rate : 24.333 FPS
Color space : YUV
Chroma subsampling : 4:2:0
Bit depth : 10 bits
Bits/(Pixel*Frame) : 0.028
Stream size : 49.3 MiB (54%)
Default : Yes
Forced : No
Color range : Limited
Color primaries : BT.601 NTSC
Transfer characteristics : BT.470 System B/G
Matrix coefficients : BT.601

Audio
ID : 2
Format : Opus
Codec ID : A_OPUS
Duration : 22 min 50 s
Bit rate : 148 kb/s
Channel(s) : 2 channels
Channel layout : L R
Sampling rate : 48.0 kHz
Frame rate : 50.002 FPS (960 SPF)
Bit depth : 32 bits
Compression mode : Lossy
Delay relative to video : -7 ms
Stream size : 24.2 MiB (27%)
Default : Yes
Forced : No

Text
ID : 3
Format : ASS
Codec ID : S_TEXT/ASS
Codec ID/Info : Advanced Sub Station Alpha
Duration : 22 min 48 s
Bit rate : 3 582 b/s
Count of elements : 5288
Compression mode : Lossless
Stream size : 598 KiB (1%)
Language : English
Default : Yes
Forced : No

Menu
00:00:00.000 : OP
00:01:30.007 : Part A
00:08:49.988 : Part B
00:21:35.044 : ED
00:22:35.020 : Preview

Download [ENTE] Bleach (2004) S01-S08 (E001-E167) [AV1] [OPUS] [DVD] [576p] torrent


Related Torrents

Added  Size  Health
Download Magnet link   [ENTE] Bleach (2004) S09-S16 (E168-E366) [AV1] [OPUS] [BD US] [720p] in English-translated , by
LOLer
1w 25.7 GB 10 5




Home - Browse Torrents
ExtraTorrent.st is in compliance with copyrights
2021 ExtraTorrent.st