ExtraTorrent.st - The Largest Bittorent System
Latest Articles
Most searched
Hot torrents
New Movies
Hot torrents
Foreign
ExtraTorrent.st > Categories > Movies torrents > Bollywood torrents


Browse Movies torrents

Kaberi Antardhan 2023 1080p HDTS Bengali AAC x264 HSubs - HDWebMovies torrent


Download torrent: Magnet link
Info hash: E46F3AC723ED0768DB609064B49D5EF4434949D8
Category: Categories > Movies torrents > Bollywood torrents
Trackers:
udp://tracker.tiny-vps.com:6969/announce
udp://fasttracker.foreverpirates.co:6969/announce
udp://tracker.opentrackr.org:1337/announce
udp://explodie.org:6969/announce
udp://open.stealth.si:80/announce
udp://tracker.cyberia.is:6969/announce
udp://ipv4.tracker.harry.lu:80/announce
udp://tracker.uw0.xyz:6969/announce
udp://tracker.dler.org:6969/announce
udp://9.rarbg.to:2710/announce
udp://open.demonii.com:1337/announce
udp://zecircle.xyz:6969/announce
udp://tracker.leech.ie:1337/announce
udp://tracker.pomf.se:80/announce
udp://tracker.opentrackr.org:1337/announce
http://tracker.openbittorrent.com:80/announce
udp://opentracker.i2p.rocks:6969/announce
udp://tracker.internetwarriors.net:1337/announce
udp://tracker.leechers-paradise.org:6969/announce
udp://coppersurfer.tk:6969/announce
udp://tracker.zer0day.to:1337/announce
Health:
 seeds: 6, leechers: 5
Torrent language: Bengali/Bangla Bengali/Bangla
Total Size: 4.1 GB
Number of files:
2   
Uploader:
LOLer
Torrent added:2023-01-22 18:58:31

Download Kaberi Antardhan 2023 1080p HDTS Bengali AAC x264 HSubs - HDWebMovies torrent




Torrent Description
Media Info:




Quote:

Format : AVC
Format/Info : Advanced Video Codec
Format profile : [email protected]
Format settings : CABAC / 1 Ref Frames
Format settings, CABAC : Yes
Format settings, Reference frames : 1 frame
Format settings, GOP : M=1, N=30
Codec ID : V_MPEG4/ISO/AVC
Duration : 2 h 16 min
Bit rate : 4 000 kb/s
Width : 1 920 pixels
Height : 1 080 pixels
Display aspect ratio : 16:9
Frame rate mode : Constant
Frame rate : 25.000 FPS
Color space : YUV
Chroma subsampling : 4:2:0
Bit depth : 8 bits
Scan type : Progressive
Bits/(Pixel*Frame) : 0.077
Stream size : 3.83 GiB (95%)
Title : HDWebMovies
Default : Yes
Forced : No
Color range : Limited
Color primaries : BT.709
Transfer characteristics : BT.709
Matrix coefficients : BT.709

Audio
ID : 2
Format : AAC LC
Format/Info : Advanced Audio Codec Low Complexity
Codec ID : A_AAC-2
Duration : 2 h 16 min
Bit rate : 192 kb/s
Channel(s) : 2 channels
Channel layout : L R
Sampling rate : 44.1 kHz
Frame rate : 43.066 FPS (1024 SPF)
Compression mode : Lossy
Stream size : 188 MiB (5%)
Title : HDWebMovies
Default : Yes
Forced : No







Screenshots:
















Note: this is our Own Source If you Repost this Please Give Proper Credit

Download Kaberi Antardhan 2023 1080p HDTS Bengali AAC x264 HSubs - HDWebMovies torrent


Related Torrents

Added  Size  Health
Download Magnet link   Kaberi Antardhan 2023 720p HDTS Rip Bengali AAC x264 HSubs - HDWebMovies in Bollywood , by
Farrumfluffy
2w 1.1 GB 2 5
Download Magnet link   Kaberi Antardhan 2023 1080p HDTS Rip Bengali AAC x264 HSubs - HDWebMovies in Bollywood , by
IRISHMAN
2w 2 GB 3 4




Home - Browse Torrents
ExtraTorrent.st is in compliance with copyrights
2021 ExtraTorrent.st