ExtraTorrent.st - The Largest Bittorent System
Latest Articles
Most searched
Hot torrents
New Movies
Hot torrents
Foreign
ExtraTorrent.st > Categories > Movies torrents > Bollywood torrents


Browse Movies torrents

Thank God (2022) 1080p AMZN WebRip Hindi DDP5 1 H 264-themoviesboss torrent


Download torrent: Magnet link
Info hash: 44F98F1751326834633D5EB9CB520F2655C218E7
Category: Categories > Movies torrents > Bollywood torrents
Trackers:
udp://tracker.tiny-vps.com:6969/announce
udp://fasttracker.foreverpirates.co:6969/announce
udp://tracker.opentrackr.org:1337/announce
udp://explodie.org:6969/announce
udp://open.stealth.si:80/announce
udp://tracker.cyberia.is:6969/announce
udp://ipv4.tracker.harry.lu:80/announce
udp://tracker.uw0.xyz:6969/announce
udp://tracker.dler.org:6969/announce
udp://9.rarbg.to:2710/announce
udp://tracker.bitsearch.to:1337/announce
udp://aarsen.me:6969/announce
udp://htz3.noho.st:6969/announce
udp://tracker.joybomb.tw:6969/announce
udp://tracker.opentrackr.org:1337/announce
http://tracker.openbittorrent.com:80/announce
udp://opentracker.i2p.rocks:6969/announce
udp://tracker.internetwarriors.net:1337/announce
udp://tracker.leechers-paradise.org:6969/announce
udp://coppersurfer.tk:6969/announce
udp://tracker.zer0day.to:1337/announce
Health:
 seeds: 242, leechers: 45
Torrent language: Hindi Hindi
Total Size: 1.9 GB
Number of files:
1   
Uploader:
LOLer
Torrent added:2022-12-08 21:04:28

Download Thank God (2022) 1080p AMZN WebRip Hindi DDP5 1 H 264-themoviesboss torrent




Torrent Description
Thank.God.(2022).1080p.AMZN.WebRip.Hindi.DDP5.1.H.264-themoviesboss



Media Info



Format : Matroska
Format version : Version 4
File size : 1.87 GiB
Duration : 2 h 1 min
Overall bit rate : 2 200 kb/s
Encoded date : UTC 2022-12-08 19:34:13
Writing library : libebml v1.4.2 + libmatroska v1.6.4
Video
ID : 2
Format : AVC
Format/Info : Advanced Video Codec
Format profile : [email protected]
Format settings : CABAC / 4 Ref Frames
Format settings, CABAC : Yes
Format settings, Reference frames : 4 frames
Codec ID : V_MPEG4/ISO/AVC
Duration : 2 h 1 min
Bit rate : 1 942 kb/s
Width : 1 920 pixels
Height : 800 pixels
Display aspect ratio : 2.40:1
Frame rate mode : Constant
Frame rate : 24.000 FPS
Color space : YUV
Chroma subsampling : 4:2:0
Bit depth : 8 bits
Scan type : Progressive
Bits/(Pixel*Frame) : 0.053
Stream size : 1.65 GiB (88%)
Title : themoviesboss
Language : English
Default : Yes
Forced : No
Color range : Limited
Color primaries : BT.709
Transfer characteristics : BT.709
Matrix coefficients : BT.709

Audio #1
ID : 3
Format : E-AC-3
Format/Info : Enhanced AC-3
Commercial name : Dolby Digital Plus
Codec ID : A_EAC3
Duration : 2 h 1 min
Bit rate mode : Constant
Bit rate : 192 kb/s
Channel(s) : 6 channels
Channel layout : L R C LFE Ls Rs
Sampling rate : 48.0 kHz
Frame rate : 31.250 FPS (1536 SPF)
Compression mode : Lossy
Stream size : 167 MiB (9%)
Title : themoviesboss
Language : Hindi
Service kind : Complete Main
Default : Yes
Forced : No

Audio #2
ID : 4
Format : AAC LC SBR
Format/Info : Advanced Audio Codec Low Complexity with Spectral Band Replication
Commercial name : HE-AAC
Format settings : Explicit
Codec ID : A_AAC-2
Duration : 2 h 1 min
Bit rate : 64.0 kb/s
Channel(s) : 2 channels
Channel layout : L R
Sampling rate : 48.0 kHz
Frame rate : 23.438 FPS (2048 SPF)
Compression mode : Lossy
Stream size : 55.6 MiB (3%)
Title : themoviesboss
Language : Hindi
Default : Yes
Forced : No

Text #1
ID : 1
Format : UTF-8
Codec ID : S_TEXT/UTF8
Codec ID/Info : UTF-8 Plain Text
Duration : 30 s 200 ms
Bit rate : 42 b/s
Frame rate : 0.033 FPS
Count of elements : 1
Stream size : 160 Bytes (0%)
Title : TheMoviesBoss
Language : English
Default : Yes
Forced : Yes

Text #2
ID : 5
Format : UTF-8
Codec ID : S_TEXT/UTF8
Codec ID/Info : UTF-8 Plain Text
Duration : 1 h 54 min
Bit rate : 57 b/s
Frame rate : 0.259 FPS
Count of elements : 1778
Stream size : 48.6 KiB (0%)
Title : themoviesboss[Full]
Language : English
Default : No
Forced : No



Screenshots:















Download Thank God (2022) 1080p AMZN WebRip Hindi DDP5 1 H 264-themoviesboss torrent


Related Torrents

Added  Size  Health
Download Magnet link   Thank God It's Friday (1978) [720p] [BluRay] [YTS] [YIFY] in Highres Movies , by
Dnasugar
2y 821.8 MB 3 8
Download Magnet link   Mike Birbiglia Thank God For Jokes 2017 SWESUB 1080p WEB-DL x264 in Highres Movies , by
samizayn
5y 1.19 GB 1 0
Download Magnet link   Sex Slaves-Thank God for Jack Daniels(DoDo) in Music videos , by
kingburger
9y 161.46 MB 0 0
Download Magnet link   Thank God Its Friday 1978 DVDRip x264-NoRBiT in Movies , by
Farrumfluffy
9y 1.42 GB 0 0
Download Magnet link   Culture Club - God Thank You Woman in Music videos , by
IRISHMAN
16y 44.91 MB 0 1




Home - Browse Torrents
ExtraTorrent.st is in compliance with copyrights
2021 ExtraTorrent.st