ExtraTorrent.st - The Largest Bittorent System
Latest Articles
Most searched
Hot torrents
New Movies
Hot torrents
Foreign
ExtraTorrent.st > Categories > Movies torrents > Bollywood torrents


Browse Movies torrents

Freddy 2022 Hindi 1080p 10bit DS4K DSNP WEBRip DDP5 1 Atmos ESub HEVC-The PunisheR torrent


Download torrent: Magnet link
Info hash: 2B4D257CE07D51199297A26EBA47AC6A2D1A3F21
Category: Categories > Movies torrents > Bollywood torrents
Trackers:
udp://tracker.opentrackr.org:1337/announce
udp://open.tracker.cl:1337/announce
udp://9.rarbg.com:2810/announce
udp://opentracker.i2p.rocks:6969/announce
https://opentracker.i2p.rocks:443/announce
udp://tracker.torrent.eu.org:451/announce
udp://tracker.tiny-vps.com:6969/announce
udp://tracker.pomf.se:80/announce
udp://tracker.moeking.me:6969/announce
udp://p4p.arenabg.com:1337/announce
udp://open.stealth.si:80/announce
udp://open.demonii.com:1337/announce
udp://movies.zsw.ca:6969/announce
udp://ipv4.tracker.harry.lu:80/announce
udp://tracker.opentrackr.org:1337/announce
http://tracker.openbittorrent.com:80/announce
udp://opentracker.i2p.rocks:6969/announce
udp://tracker.internetwarriors.net:1337/announce
udp://tracker.leechers-paradise.org:6969/announce
udp://coppersurfer.tk:6969/announce
udp://tracker.zer0day.to:1337/announce
Health:
 seeds: 35, leechers: 2
Torrent language: Hindi Hindi
Total Size: 4.1 GB
Number of files:
1   
Uploader:
d3vi
Torrent added:2022-12-05 03:52:25

Download Freddy 2022 Hindi 1080p 10bit DS4K DSNP WEBRip DDP5 1 Atmos ESub HEVC-The PunisheR torrent




Torrent Description
Freddy.2022.Hindi.1080p.10bit.DS4K.DSNP.WEBRip.DDP5.1.Atmos.ESub.HEVC-The.PunisheR



???? Encoded Using CRF 13 From 4K WEB-DL ????



MediaInfos:
General
Unique ID : 166495393726494369365090750548649656755 (0x7D41D8B029D3222F5F1EEA1913A341B3)
Complete name : Freddy.2022.Hindi.1080p.10bit.DS4K.DSNP.WEBRip.DDP5.1.Atmos.ESub.HEVC-The.PunisheR.mkv
Format : Matroska
Format version : Version 4 / Version 2
File size : 4.06 GiB
Duration : 2 h 3 min
Overall bit rate : 4 698 kb/s
Movie name : The.PunisheR
Encoded date : UTC 2022-12-05 02:00:43
Writing application : mkvmerge v72.0.0 ('Minuano (Six-eight)') 64-bit
Writing library : libebml v1.4.4 + libmatroska v1.7.1
Attachments : Encoded-By-The-PunisheR.jpg

Video
ID : 1
Format : HEVC
Format/Info : High Efficiency Video Coding
Format profile : Main [email protected]@High
Codec ID : V_MPEGH/ISO/HEVC
Duration : 2 h 3 min
Bit rate : 3 928 kb/s
Width : 1 920 pixels
Height : 818 pixels
Display aspect ratio : 2.35:1
Frame rate mode : Constant
Frame rate : 24.000 FPS
Color space : YUV
Chroma subsampling : 4:2:0 (Type 0)
Bit depth : 10 bits
Bits/(Pixel*Frame) : 0.104
Stream size : 3.40 GiB (84%)
Title : 1080p / 10bit / DS4K / DSNP / WEBRip / Q13 / HPL / HEVC ~ The.PunisheR
Default : Yes
Forced : No
Color range : Limited
Color primaries : BT.709
Transfer characteristics : BT.709
Matrix coefficients : BT.709

Audio
ID : 2
Format : E-AC-3
Format/Info : Enhanced Audio Coding 3
Format profile : E-AC-3+Atmos / E-AC-3
Format settings, Endianness : Big
Codec ID : A_EAC3
Duration : 2 h 3 min
Bit rate mode : Constant
Bit rate : 768 kb/s
Channel(s) : 15 objects / 6 channels
Channel positions : 15 objects / Front: L C R, Side: L R, LFE
Sampling rate : 48.0 kHz
Frame rate : 187.500 FPS (256 SPF)
Compression mode : Lossy
Stream size : 680 MiB (16%)
Title : DD+5.1 / Atmos / 768kbps / 48kHz ~ The.PunisheR
Language : Hindi
Service kind : Complete Main
Default : Yes
Forced : Yes

Text
ID : 3
Format : UTF-8
Codec ID : S_TEXT/UTF8
Codec ID/Info : UTF-8 Plain Text
Duration : 2 h 1 min
Bit rate : 36 b/s
Count of elements : 1313
Stream size : 32.1 KiB (0%)
Title : English - SRT
Language : English
Default : No
Forced : No



Screenshots:











Quote:


Source : Freddy.2022.2160p.8bit.SDR.DSNP.WEB-DL.DD+5.1.Atmos.HEVC-RAXASA
Size : 17.8 GB


ENjOY THE QUALiTY








Download Freddy 2022 Hindi 1080p 10bit DS4K DSNP WEBRip DDP5 1 Atmos ESub HEVC-The PunisheR torrent


Related Torrents

Added  Size  Health
Download Magnet link   Freddy (2022) 720p 10bit DS4K DSNP WEBRip x265 HEVC Hindi AAC 5 1 ESub ~ Immortal in Bollywood , by
spurpick_33
1m 577.5 MB 21 5
Download Magnet link   Freddy (2022) Hindi DS4K (1080p WEBRip x265 HEVC 10bit DDP 5 1 ESub) - [Musafirboy] in Bollywood , by
kingburger
1m 2 GB 62 13
Download Magnet link   Freddy (2022) - Hindi - 1080p HQ HDRip - x264 - AAC - 2 5GB - Esubs - QRips in Bollywood , by
d3vi
2m 2.6 GB 397 80
Download Magnet link   Freddy (2022) Hindi 720p WEBRip x264 AAC ESub in Bollywood , by
satshaDE
2m 1.2 GB 410 62




Home - Browse Torrents
ExtraTorrent.st is in compliance with copyrights
2021 ExtraTorrent.st