ExtraTorrent.st - The Largest Bittorent System
Latest Articles
Most searched
Hot torrents
New Movies
Hot torrents
Foreign
ExtraTorrent.st > Categories > Movies torrents > Bollywood torrents


Browse Movies torrents

Ponniyin Selvan Part 1 (2022) 720p HEVC AMZN WebRip Hindi (Cam Cleaned ) H 265-themoviesboss torrent


Download torrent: Magnet link
Info hash: 5346E84319124E994E87FE63335CB4D81E77289B
Category: Categories > Movies torrents > Bollywood torrents
Trackers:
udp://tracker.tiny-vps.com:6969/announce
udp://fasttracker.foreverpirates.co:6969/announce
udp://tracker.opentrackr.org:1337/announce
udp://explodie.org:6969/announce
udp://open.stealth.si:80/announce
udp://tracker.cyberia.is:6969/announce
udp://ipv4.tracker.harry.lu:80/announce
udp://tracker.uw0.xyz:6969/announce
udp://tracker.dler.org:6969/announce
udp://9.rarbg.to:2710/announce
udp://open.demonii.com:1337/announce
udp://zecircle.xyz:6969/announce
udp://tracker.leech.ie:1337/announce
udp://tracker.pomf.se:80/announce
udp://tracker.opentrackr.org:1337/announce
http://tracker.openbittorrent.com:80/announce
udp://opentracker.i2p.rocks:6969/announce
udp://tracker.internetwarriors.net:1337/announce
udp://tracker.leechers-paradise.org:6969/announce
udp://coppersurfer.tk:6969/announce
udp://tracker.zer0day.to:1337/announce
Health:
 seeds: 56, leechers: 5
Torrent language: Hindi Hindi
Total Size: 1.1 GB
Number of files:
1   
Uploader:
NP_Bones
Torrent added:2022-10-28 08:30:44

Download Ponniyin Selvan Part 1 (2022) 720p HEVC AMZN WebRip Hindi (Cam Cleaned ) H 265-themoviesboss torrent




Torrent Description
Ponniyin.Selvan.Part.1.(2022).720p.HEVC.AMZN.WebRip.Hindi.(Cam Cleaned.).H.265-themoviesboss



Note: Hindi Audio is Cam Cleaned



Media Info



Format : Matroska
Format version : Version 4
File size : 1.06 GiB
Duration : 2 h 46 min
Overall bit rate mode : Variable
Overall bit rate : 905 kb/s
Encoded date : UTC 2022-10-28 05:04:17
Writing library : libebml v1.4.2 + libmatroska v1.6.4
Video
ID : 2
Format : HEVC
Format/Info : High Efficiency Video Coding
Format profile : [email protected]@Main
Codec ID : V_MPEGH/ISO/HEVC
Duration : 2 h 46 min
Bit rate : 775 kb/s
Width : 1 280 pixels
Height : 528 pixels
Display aspect ratio : 2.40:1
Frame rate mode : Constant
Frame rate : 24.000 FPS
Standard : NTSC
Color space : YUV
Chroma subsampling : 4:2:0
Bit depth : 8 bits
Bits/(Pixel*Frame) : 0.048
Stream size : 925 MiB (86%)
Title : themoviesboss
Language : English
Default : Yes
Forced : No
Color range : Limited
Color primaries : BT.709
Transfer characteristics : BT.709
Matrix coefficients : BT.709

Audio
ID : 3
Format : MPEG Audio
Format version : Version 1
Format profile : Layer 3
Format settings : Joint stereo / MS Stereo
Codec ID : A_MPEG/L3
Codec ID/Hint : MP3
Duration : 2 h 46 min
Bit rate mode : Variable
Bit rate : 128 kb/s
Channel(s) : 2 channels
Sampling rate : 44.1 kHz
Frame rate : 38.281 FPS (1152 SPF)
Compression mode : Lossy
Stream size : 152 MiB (14%)
Title : themoviesboss
Writing library : LAME3.98r
Encoding settings : -m j -V 0 -q 3 --abr 128
Language : Hindi
Default : Yes
Forced : No

Text #1
ID : 1
Format : UTF-8
Codec ID : S_TEXT/UTF8
Codec ID/Info : UTF-8 Plain Text
Duration : 30 s 200 ms
Bit rate : 42 b/s
Frame rate : 0.033 FPS
Count of elements : 1
Stream size : 160 Bytes (0%)
Title : TheMoviesBoss
Language : English
Default : Yes
Forced : Yes

Text #2
ID : 4
Format : UTF-8
Codec ID : S_TEXT/UTF8
Codec ID/Info : UTF-8 Plain Text
Duration : 2 h 38 min
Bit rate : 49 b/s
Frame rate : 0.171 FPS
Count of elements : 1625
Stream size : 56.8 KiB (0%)
Title : themoviesboss[Full]
Language : English
Default : No
Forced : No





Screenshots:











Download Ponniyin Selvan Part 1 (2022) 720p HEVC AMZN WebRip Hindi (Cam Cleaned ) H 265-themoviesboss torrent


Related Torrents



Home - Browse Torrents
ExtraTorrent.st is in compliance with copyrights
2021 ExtraTorrent.st