ExtraTorrent.st - The Largest Bittorent System
Latest Articles
Most searched
Hot torrents
New Movies
Hot torrents
Foreign
ExtraTorrent.st > Categories > Movies torrents > Highres Movies torrents


Browse Movies torrents

Gods Country 2022 1080p WEBRip DD5 1 x264-CM torrent


Download torrent: Magnet link
Info hash: CCEA59D3C2D57879F05E1F3945A8DF96CDB912B1
Category: Categories > Movies torrents > Highres Movies torrents
Trackers:
http://tracker.trackerfix.com:80/announce
udp://9.rarbg.me:2730/announce
udp://9.rarbg.to:2960/announce
udp://tracker.fatkhoala.org:13800/announce
udp://tracker.tallpenguin.org:15770/announce
udp://tracker.opentrackr.org:1337/announce
http://tracker.openbittorrent.com:80/announce
udp://opentracker.i2p.rocks:6969/announce
udp://tracker.internetwarriors.net:1337/announce
udp://tracker.leechers-paradise.org:6969/announce
udp://coppersurfer.tk:6969/announce
udp://tracker.zer0day.to:1337/announce
Health:
 seeds: 392, leechers: 28
Torrent language: English English
Total Size: 5.1 GB
Number of files:
2   
Uploader:
NP_Bones
Torrent added:2022-10-04 10:11:04

Download Gods Country 2022 1080p WEBRip DD5 1 x264-CM torrent




Torrent Description
https://www.imdb.com/title/tt11818818/












Code:

Video
ID : 1
Format : AVC
Format/Info : Advanced Video Codec
Format profile : [email protected]
Format settings : CABAC / 4 Ref Frames
Format settings, CABAC : Yes
Format settings, Reference frames : 4 frames
Codec ID : V_MPEG4/ISO/AVC
Duration : 1 h 42 min
Bit rate : 6 707 kb/s
Width : 1 918 pixels
Height : 1 036 pixels
Display aspect ratio : 1.85:1
Frame rate mode : Constant
Frame rate : 23.976 (24000/1001) FPS
Color space : YUV
Chroma subsampling : 4:2:0
Bit depth : 8 bits
Scan type : Progressive
Bits/(Pixel*Frame) : 0.141
Stream size : 4.80 GiB (95%)
Language : English
Default : Yes
Forced : No
Color range : Limited
Color primaries : BT.709
Transfer characteristics : BT.709
Matrix coefficients : BT.709

Audio
ID : 2
Format : AC-3
Format/Info : Audio Coding 3
Commercial name : Dolby Digital
Codec ID : A_AC3
Duration : 1 h 42 min
Bit rate mode : Constant
Bit rate : 384 kb/s
Channel(s) : 6 channels
Channel layout : L R C LFE Ls Rs
Sampling rate : 48.0 kHz
Frame rate : 31.250 FPS (1536 SPF)
Compression mode : Lossy
Stream size : 281 MiB (5%)
Language : English
Service kind : Complete Main
Default : Yes
Forced : No

Text #1
ID : 3
Format : UTF-8
Codec ID : S_TEXT/UTF8
Codec ID/Info : UTF-8 Plain Text
Duration : 1 h 37 min
Bit rate : 40 b/s
Frame rate : 0.170 FPS
Count of elements : 1000
Stream size : 29.2 KiB (0%)
Title : SDH
Language : English
Default : No
Forced : No

Text #2
ID : 4
Format : UTF-8
Codec ID : S_TEXT/UTF8
Codec ID/Info : UTF-8 Plain Text
Duration : 1 h 30 min
Bit rate : 37 b/s
Frame rate : 0.143 FPS
Count of elements : 780
Stream size : 24.7 KiB (0%)
Language : English
Default : No
Forced : No

Menu
00:00:00.000 : en:Chapter 01
00:11:45.830 : en:Chapter 02
00:21:46.931 : en:Chapter 03
00:33:52.657 : en:Chapter 04
00:42:16.327 : en:Chapter 05
00:53:45.141 : en:Chapter 06
01:08:59.889 : en:Chapter 07
01:18:36.049 : en:Chapter 08
01:31:12.681 : en:Chapter 09
01:39:04.736 : en:Chapter 10

Download Gods Country 2022 1080p WEBRip DD5 1 x264-CM torrent


Related Torrents

Added  Size  Health
Download Magnet link   Gods Own Country 2017 Bluray 1080p DTS-HD x264-Grym in Highres Movies , by
presenceBUS
4y 12.53 GB 0 1
Download Magnet link   Gods Own Country 2017 BRRip XviD AC3-EVO in Movies , by
Satyr22
4y 1.41 GB 0 0
Download Magnet link   Gods Country 2012 BRrip XVID AC3 ACAB in Movies , by
IRISHMAN
8y 1.53 GB 0 0
Download Magnet link   Gods Country 2012 BDRip x264-SONiDO in Movies , by
Dnasugar
8y 593.58 MB 0 0
Download Magnet link   Man From Gods Country [George Montgomery] (1958) DVDRip Oldies in Movies , by
mutuallyeXXon
9y 873.23 MB 0 1




Home - Browse Torrents
ExtraTorrent.st is in compliance with copyrights
2021 ExtraTorrent.st