ExtraTorrent.st - The Largest Bittorent System
Latest Articles
Most searched
Hot torrents
New Movies
Hot torrents
Foreign
ExtraTorrent.st > Categories > Movies torrents > Highres Movies torrents


Browse Movies torrents

The Enforcer 2022 1080p WEBRip DD5 1 x264-CM torrent


Download torrent: Magnet link
Info hash: 1DA951CD1B1A4B04352EE26DCF3C6C30A00F0E74
Category: Categories > Movies torrents > Highres Movies torrents
Trackers:
http://tracker.trackerfix.com:80/announce
udp://9.rarbg.me:2870/announce
udp://9.rarbg.to:2780/announce
udp://tracker.fatkhoala.org:13800/announce
udp://tracker.tallpenguin.org:15730/announce
udp://tracker.opentrackr.org:1337/announce
http://tracker.openbittorrent.com:80/announce
udp://opentracker.i2p.rocks:6969/announce
udp://tracker.internetwarriors.net:1337/announce
udp://tracker.leechers-paradise.org:6969/announce
udp://coppersurfer.tk:6969/announce
udp://tracker.zer0day.to:1337/announce
Health:
 seeds: 556, leechers: 49
Torrent language: English English
Total Size: 4.5 GB
Number of files:
2   
Uploader:
0x1e
Torrent added:2022-09-23 11:22:57

Download The Enforcer 2022 1080p WEBRip DD5 1 x264-CM torrent




Torrent Description




Code:


Video
ID : 1
Format : AVC
Format/Info : Advanced Video Codec
Format profile : [email protected]
Format settings : CABAC / 5 Ref Frames
Format settings, CABAC : Yes
Format settings, Reference frames : 5 frames
Codec ID : V_MPEG4/ISO/AVC
Duration : 1 h 30 min
Bit rate : 6 692 kb/s
Width : 1 920 pixels
Height : 806 pixels
Display aspect ratio : 2.40:1
Frame rate mode : Constant
Frame rate : 23.976 (24000/1001) FPS
Color space : YUV
Chroma subsampling : 4:2:0
Bit depth : 8 bits
Scan type : Progressive
Bits/(Pixel*Frame) : 0.180
Stream size : 4.24 GiB (95%)
Language : English
Default : Yes
Forced : No
Color range : Limited
Color primaries : BT.709
Transfer characteristics : BT.709
Matrix coefficients : BT.709

Audio
ID : 2
Format : AC-3
Format/Info : Audio Coding 3
Commercial name : Dolby Digital
Codec ID : A_AC3
Duration : 1 h 30 min
Bit rate mode : Constant
Bit rate : 384 kb/s
Channel(s) : 6 channels
Channel layout : L R C LFE Ls Rs
Sampling rate : 48.0 kHz
Frame rate : 31.250 FPS (1536 SPF)
Compression mode : Lossy
Stream size : 249 MiB (5%)
Language : English
Service kind : Complete Main
Default : Yes
Forced : No

Text #1
ID : 3
Format : UTF-8
Codec ID : S_TEXT/UTF8
Codec ID/Info : UTF-8 Plain Text
Duration : 1 h 24 min
Bit rate : 58 b/s
Frame rate : 0.273 FPS
Count of elements : 1391
Stream size : 36.1 KiB (0%)
Title : SDH
Language : English
Default : No
Forced : No

Text #2
ID : 4
Format : UTF-8
Codec ID : S_TEXT/UTF8
Codec ID/Info : UTF-8 Plain Text
Duration : 1 h 24 min
Bit rate : 50 b/s
Frame rate : 0.220 FPS
Count of elements : 1114
Stream size : 31.0 KiB (0%)
Language : English
Default : No
Forced : No

Menu
00:00:00.000 : en:Chapter 01
00:05:28.578 : en:Chapter 02
00:11:22.015 : en:Chapter 03
00:15:29.429 : en:Chapter 04
00:20:22.263 : en:Chapter 05
00:25:28.862 : en:Chapter 06
00:29:52.375 : en:Chapter 07
00:36:20.263 : en:Chapter 08
00:41:10.387 : en:Chapter 09
00:46:31.583 : en:Chapter 10
00:51:04.272 : en:Chapter 11
00:59:33.365 : en:Chapter 12
01:05:02.819 : en:Chapter 13
01:10:12.128 : en:Chapter 14
01:16:57.242 : en:Chapter 15

Download The Enforcer 2022 1080p WEBRip DD5 1 x264-CM torrent


Related Torrents

Added  Size  Health
Download Magnet link   Dirty Harry-The Enforcer (1976)-Clint Eastwood-1080p-H264-AC 3 (DolbyD-5 1) nickarad in Highres Movies , by
nickarad
2y 1.8 GB 2 4
Download Magnet link   Dirty Harry the enforcer 1976 in Movies , by
Pacific_cold
5y 700.48 MB 0 1
Download Magnet link   The Enforcer (1976) - Clint Eastwood - BRRip XviD in Movies , by
Satyr22
5y 1.22 GB 0 1
Download Magnet link   The Enforcer 1976 BRRip XviD MP3-RARBG in Movies , by
crAck_
7y 1.22 GB 0 1
Download Magnet link   Dirty Harry The Enforcer 1976 BluRay 1080p DTS dxva-LoNeWolf in Movies , by
Farrumfluffy
11y 8.5 GB 1 0




Home - Browse Torrents
ExtraTorrent.st is in compliance with copyrights
2021 ExtraTorrent.st