ExtraTorrent.st - The Largest Bittorent System
Latest Articles
Most searched
Hot torrents
New Movies
Hot torrents
Foreign
ExtraTorrent.st > Categories > Movies torrents > Highres Movies torrents


Browse Movies torrents

Bandit 2022 1080p WEBRip DD5 1 x264-CM torrent


Download torrent: Magnet link
Info hash: D66B9B2D88272D8BD8990ED39A25E69D7A997290
Category: Categories > Movies torrents > Highres Movies torrents
Trackers:
http://tracker.trackerfix.com:80/announce
udp://9.rarbg.me:2890/announce
udp://9.rarbg.to:2990/announce
udp://tracker.thinelephant.org:12750/announce
udp://tracker.slowcheetah.org:14740/announce
udp://tracker.opentrackr.org:1337/announce
http://tracker.openbittorrent.com:80/announce
udp://opentracker.i2p.rocks:6969/announce
udp://tracker.internetwarriors.net:1337/announce
udp://tracker.leechers-paradise.org:6969/announce
udp://coppersurfer.tk:6969/announce
udp://tracker.zer0day.to:1337/announce
Health:
 seeds: 590, leechers: 83
Torrent language: English English
Total Size: 9.2 GB
Number of files:
2   
Uploader:
kingburger
Torrent added:2022-09-23 11:18:48

Download Bandit 2022 1080p WEBRip DD5 1 x264-CM torrent




Torrent Description




Code:

Video
ID : 1
Format : AVC
Format/Info : Advanced Video Codec
Format profile : [email protected]
Format settings : CABAC / 5 Ref Frames
Format settings, CABAC : Yes
Format settings, Reference frames : 5 frames
Codec ID : V_MPEG4/ISO/AVC
Duration : 2 h 5 min
Bit rate : 10.0 Mb/s
Width : 1 916 pixels
Height : 800 pixels
Display aspect ratio : 2.40:1
Frame rate mode : Constant
Frame rate : 23.976 (24000/1001) FPS
Color space : YUV
Chroma subsampling : 4:2:0
Bit depth : 8 bits
Scan type : Progressive
Bits/(Pixel*Frame) : 0.273
Stream size : 8.82 GiB (96%)
Language : English
Default : Yes
Forced : No
Color range : Limited
Color primaries : BT.709
Transfer characteristics : BT.709
Matrix coefficients : BT.709

Audio
ID : 2
Format : AC-3
Format/Info : Audio Coding 3
Commercial name : Dolby Digital
Codec ID : A_AC3
Duration : 2 h 5 min
Bit rate mode : Constant
Bit rate : 384 kb/s
Channel(s) : 6 channels
Channel layout : L R C LFE Ls Rs
Sampling rate : 48.0 kHz
Frame rate : 31.250 FPS (1536 SPF)
Compression mode : Lossy
Stream size : 346 MiB (4%)
Title : Canadian
Language : English
Service kind : Complete Main
Default : Yes
Forced : No

Text #1
ID : 3
Format : UTF-8
Codec ID : S_TEXT/UTF8
Codec ID/Info : UTF-8 Plain Text
Duration : 1 h 58 min
Bit rate : 75 b/s
Frame rate : 0.349 FPS
Count of elements : 2480
Stream size : 65.6 KiB (0%)
Title : SDH
Language : English
Default : No
Forced : No

Text #2
ID : 4
Format : UTF-8
Codec ID : S_TEXT/UTF8
Codec ID/Info : UTF-8 Plain Text
Duration : 1 h 57 min
Bit rate : 69 b/s
Frame rate : 0.311 FPS
Count of elements : 2186
Stream size : 59.3 KiB (0%)
Language : English
Default : No
Forced : No

Menu
00:00:00.000 : en:Chapter 01
00:08:31.469 : en:Chapter 02
00:23:11.016 : en:Chapter 03
00:38:34.439 : en:Chapter 04
00:47:31.017 : en:Chapter 05
00:59:50.757 : en:Chapter 06
01:09:32.339 : en:Chapter 07
01:19:08.123 : en:Chapter 08
01:30:04.237 : en:Chapter 09
01:39:37.727 : en:Chapter 10
01:49:05.086 : en:Chapter 11
01:58:21.101 : en:Chapter 12

Download Bandit 2022 1080p WEBRip DD5 1 x264-CM torrent


Related Torrents

Added  Size  Health
Download Magnet link   Bandit 2022 HDRip XviD AC3-EVO in Movies , by
crAck_
1w 1.4 GB 2 3
Download Magnet link   Bandit (2022) 1080p WEBRip YTS YIFY in Highres Movies , by
samizayn
1w 2.32 GB 0 0
Download Magnet link   Bandit (2022) 720p WEBRip YTS YIFY in Highres Movies , by
Dnasugar
1w 1.13 GB 0 0
Download Magnet link   Bandit 2022 HDRip XviD AC3-EVO[TGx] in Movies , by
mutuallyeXXon
1w 1.4 GB 0 0
Download Magnet link   Bandit 2022 720p WEBRip 800MB x264-GalaxyRG in Highres Movies , by
0x1e
1w 797 MB 620 35




Home - Browse Torrents
ExtraTorrent.st is in compliance with copyrights
2021 ExtraTorrent.st