ExtraTorrent.st - The Largest Bittorent System
Latest Articles
Most searched
Hot torrents
New Movies
Hot torrents
Foreign
ExtraTorrent.st > Categories > Movies torrents > Highres Movies torrents


Browse Movies torrents

Meet Cute 2022 1080p WEB H264-NAISU torrent


Download torrent: Magnet link
Info hash: 5718BD88617CB41B3005F4A70A7C6B82E9028DBD
Category: Categories > Movies torrents > Highres Movies torrents
Trackers:
http://tracker.trackerfix.com:80/announce
udp://9.rarbg.me:2810/announce
udp://9.rarbg.to:2840/announce
udp://tracker.fatkhoala.org:13770/announce
udp://tracker.slowcheetah.org:14770/announce
udp://tracker.opentrackr.org:1337/announce
http://tracker.openbittorrent.com:80/announce
udp://opentracker.i2p.rocks:6969/announce
udp://tracker.internetwarriors.net:1337/announce
udp://tracker.leechers-paradise.org:6969/announce
udp://coppersurfer.tk:6969/announce
udp://tracker.zer0day.to:1337/announce
Health:
 seeds: 299, leechers: 15
Torrent language: English English
Total Size: 4.6 GB
Number of files:
4   
Uploader:
kingburger
Torrent added:2022-09-21 23:31:14

Download Meet Cute 2022 1080p WEB H264-NAISU torrent




Torrent Description
Code:

Video
ID : 1
Format : AVC
Format/Info : Advanced Video Codec
Format profile : [email protected]
Format settings : CABAC / 4 Ref Frames
Format settings, CABAC : Yes
Format settings, Reference frames : 4 frames
Codec ID : V_MPEG4/ISO/AVC
Duration : 1 h 29 min
Bit rate : 7 110 kb/s
Nominal bit rate : 7 814 kb/s
Width : 1 920 pixels
Height : 1 080 pixels
Display aspect ratio : 16:9
Frame rate mode : Constant
Frame rate : 23.976 (24000/1001) FPS
Color space : YUV
Chroma subsampling : 4:2:0
Bit depth : 8 bits
Scan type : Progressive
Bits/(Pixel*Frame) : 0.143
Stream size : 4.43 GiB (95%)
Writing library : x264 core 164 r3095 baee400
Encoding settings : cabac=1 / ref=4 / deblock=1:0:0 / analyse=0x3:0x113 / me=umh / subme=7 / psy=1 / psy_rd=0.00:0.00 / mixed_ref=1 / me_range=16 / chroma_me=1 / trellis=1 / 8x8dct=1 / cqm=0 / deadzone=21,11 / fast_pskip=0 / chroma_qp_offset=0 / threads=34 / lookahead_threads=5 / sliced_threads=0 / nr=0 / decimate=1 / interlaced=0 / bluray_compat=0 / constrained_intra=0 / bframes=16 / b_pyramid=2 / b_adapt=1 / b_bias=0 / direct=1 / weightb=1 / open_gop=0 / weightp=2 / keyint=48 / keyint_min=4 / scenecut=0 / intra_refresh=0 / rc_lookahead=40 / rc=2pass / mbtree=1 / bitrate=7814 / ratetol=1.0 / qcomp=0.60 / qpmin=10 / qpmax=51 / qpstep=4 / cplxblur=20.0 / qblur=0.5 / vbv_maxrate=7814 / vbv_bufsize=7814 / nal_hrd=none / filler=0 / ip_ratio=1.41 / aq=1:1.00
Default : Yes
Forced : No
Color range : Limited
Color primaries : BT.709
Transfer characteristics : BT.709
Matrix coefficients : BT.709

Audio
ID : 2
Format : E-AC-3
Format/Info : Enhanced AC-3
Commercial name : Dolby Digital Plus
Codec ID : A_EAC3
Duration : 1 h 29 min
Bit rate mode : Constant
Bit rate : 192 kb/s
Channel(s) : 6 channels
Channel layout : L R C LFE Ls Rs
Sampling rate : 48.0 kHz
Frame rate : 31.250 FPS (1536 SPF)
Compression mode : Lossy
Stream size : 123 MiB (3%)
Language : English
Service kind : Complete Main
Default : Yes
Forced : No

Text #1
ID : 3
Format : UTF-8
Codec ID : S_TEXT/UTF8
Codec ID/Info : UTF-8 Plain Text
Title : English
Language : English
Default : No
Forced : No

Text #2
ID : 4
Format : UTF-8
Codec ID : S_TEXT/UTF8
Codec ID/Info : UTF-8 Plain Text
Title : Spanish
Language : Spanish
Default : No
Forced : No

Download Meet Cute 2022 1080p WEB H264-NAISU torrent


Related Torrents

Added  Size  Health
Download Magnet link   Meet Cute 2022 1080p WEBRip X264 DD5 1-EVO in Highres Movies , by
presenceBUS
2w 1.6 GB 2 0
Download Magnet link   Meet Cute 2022 1080p WEB-DL DDP5 1 H 264-EVO in Highres Movies , by
LOLer
2w 4.6 GB 2 6
Download Magnet link   Meet Cute 2022 HDRip XviD AC3-EVO in Movies , by
mutuallyeXXon
2w 1.3 GB 0 0
Download Magnet link   Meet Cute 2022 HDRip XviD AC3-EVO[TGx] in Movies , by
Farrumfluffy
2w 1.3 GB 0 0
Download Magnet link   Cute Meet Love 2010 x264 AAC [TMB] - Hindi in Movies , by
IRISHMAN
9y 260.1 MB 0 0




Home - Browse Torrents
ExtraTorrent.st is in compliance with copyrights
2021 ExtraTorrent.st