ExtraTorrent.st - The Largest Bittorent System
Latest Articles
Most searched
ExtraTorrent.st > Categories > Movies torrents > Bollywood torrents


Browse Movies torrents

Kaathuvaakula Rendu Kaadhal (2022) 720p 10bit DSNP WEBRip [ Hindi DDP 2.0 + Tamil DDP.5.1] Dual Audio x265 HEVC ESubs ~ VijayRaj [ProtonMovies] torrent


Download torrent: Magnet link
Info hash: FE591C933438BB1AD5D5704351D1ABCE75A21BAD
Category: Categories > Movies torrents > Bollywood torrents
Trackers:
udp://tracker.opentrackr.org:1337/announce
http://tracker.files.fm:6969/announce
udp://tracker.torrent.eu.org:451/announce
udp://bubu.mapfactor.com:6969/announce
https://tracker.tamersunion.org:443/announce
https://tracker.lilithraws.org:443/announce
udp://opentracker.io:6969/announce
http://tracker.renfei.net:8080/announce
udp://tracker.0x7c0.com:6969/announce
udp://tracker.fnix.net:6969/announce
https://tracker.yemekyedim.com:443/announce
udp://martin-gebhardt.eu:25/announce
udp://amigacity.xyz:6969/announce
http://tracker.gbitt.info:80/announce
udp://tracker.opentrackr.org:1337/announce
http://tracker.openbittorrent.com:80/announce
udp://opentracker.i2p.rocks:6969/announce
udp://tracker.internetwarriors.net:1337/announce
udp://tracker.leechers-paradise.org:6969/announce
udp://coppersurfer.tk:6969/announce
udp://tracker.zer0day.to:1337/announce
Health:
 seeds: 104, leechers: 90
Torrent language: Hindi Hindi
Total Size: 941.8 MB
Number of files:
1   
Uploader:
Satyr22
Torrent added:2024-06-20 19:18:56

Download Kaathuvaakula Rendu Kaadhal (2022) 720p 10bit DSNP WEBRip [ Hindi DDP 2.0 + Tamil DDP.5.1] Dual Audio x265 HEVC ESubs ~ VijayRaj [ProtonMovies] torrent




Torrent Description
"Show your support to ProtonMovies"






********************************


"Show your support to ProtonMovies"


"@Team Shadow"


"AlejandroAXL"


We Keep All Torrents. In case of re-seed, please pm Or Comment On Torrent For Re-Seed  


********************************



Format : Matroska
Format version : Version 4
File size : 942 MiB
Duration : 2 h 37 min
Overall bit rate : 837 kb/s
Movie name : Kaathuvaakula Rendu Kaadhal (2022) 720p 10bit DSNP WEBRip x265 HEVC [ Hindi DDP 2.0 + Tamil DDP5.1] ESubs - VijayRaj - DQ
Encoded date : UTC 2024-06-20 12:45:46
Writing application : mkvmerge v81.0 ('Milliontown') 64-bit
Writing library : libebml v1.4.4 + libmatroska v1.7.1
Comment : Muxed By VijayRaj
Attachments : vijay.jpg

Video
ID : 1
Format : HEVC
Format/Info : High Efficiency Video Coding
Format profile : Main [email protected]@Main
Codec ID : V_MPEGH/ISO/HEVC
Duration : 2 h 37 min
Bit rate : 530 kb/s
Width : 1 280 pixels
Height : 536 pixels
Display aspect ratio : 2.40:1
Frame rate mode : Constant
Frame rate : 24.000 FPS
Color space : YUV
Chroma subsampling : 4:2:0
Bit depth : 10 bits
Bits/(Pixel*Frame) : 0.032
Stream size : 596 MiB (63%)
Title : TG -: @EpitomeQuality
Default : Yes
Forced : No
Color range : Limited
Color primaries : BT.709
Transfer characteristics : BT.709
Matrix coefficients : BT.709

Audio #1
ID : 2
Format : E-AC-3
Format/Info : Enhanced AC-3
Commercial name : Dolby Digital Plus
Codec ID : A_EAC3
Duration : 2 h 37 min
Bit rate mode : Constant
Bit rate : 224 kb/s
Channel(s) : 2 channels
Channel layout : L R
Sampling rate : 48.0 kHz
Frame rate : 31.250 FPS (1536 SPF)
Compression mode : Lossy
Stream size : 252 MiB (27%)
Title : Hindi / DDP 2.0 / VijayRaj
Language : Hindi
Service kind : Complete Main
Default : Yes
Forced : No

Audio #2
ID : 3
Format : Opus
Codec ID : A_OPUS
Duration : 2 h 37 min
Bit rate : 80.5 kb/s
Channel(s) : 2 channels
Channel layout : L R
Sampling rate : 48.0 kHz
Frame rate : 50.000 FPS (960 SPF)
Compression mode : Lossy
Stream size : 90.6 MiB (10%)
Title : Tamil / DDP 5.1 / VijayRaj
Language : Tamil
Default : No
Forced : No

Text
ID : 4
Format : UTF-8
Codec ID : S_TEXT/UTF8
Codec ID/Info : UTF-8 Plain Text
Duration : 2 h 34 min
Bit rate : 69 b/s
Count of elements : 2502
Stream size : 78.4 KiB (0%)
Title : Encoded By DQ @HDTalkies
Language : English
Default : No
Forced : No









Download Kaathuvaakula Rendu Kaadhal (2022) 720p 10bit DSNP WEBRip [ Hindi DDP 2.0 + Tamil DDP.5.1] Dual Audio x265 HEVC ESubs ~ VijayRaj [ProtonMovies] torrent


Related Torrents



Home - Browse Torrents
ExtraTorrent.st is in compliance with copyrights
2024 ExtraTorrent.st