ExtraTorrent.st - The Largest Bittorent System
Latest Articles
Most searched
ExtraTorrent.st > Categories > Movies torrents > Highres Movies torrents


Browse Movies torrents

Boy Kills World 2023 720p AMZN WEB-DL DDP5 1 H 264-BYNDR torrent


Download torrent: Magnet link
Info hash: 33016723346D4B8D7741294DB85624A9A31201D6
Category: Categories > Movies torrents > Highres Movies torrents
Trackers:
Health:
 seeds: 26, leechers: 20
Torrent language:  
Total Size: 2.67 GB
Number of files:
4   
Uploader:
kingburger
Torrent added:2024-05-21 14:54:13

Download Boy Kills World 2023 720p AMZN WEB-DL DDP5 1 H 264-BYNDR torrent




Torrent Description
~~~~~~~~~~~~~~~~~~~~~~~~~~~~~~~~~~~~~~~~~~~~~~~~~~~~~~~~~~~~~~~~~~~~~~~~~~~~~~~~~~~

Torrent downloaded from https://www.torrenting.com

~~~~~~~~~~~~~~~~~~~~~~~~~~~~~~~~~~~~~~~~~~~~~~~~~~~~~~~~~~~~~~~~~~~~~~~~~~~~~~~~~~~

Torrenting.com is a safe and virus free torrent site with SUPER FAST DOWNLOAD SPEED ! ! !

~~~~~~~~~~~~~~~~~~~~~~~~~~~~~~~~~~~~~~~~~~~~~~~~~~~~~~~~~~~~~~~~~~~~~~~~~~~~~~~~~~~
.
.



General
Unique ID : 80879244951216074882088181629096034775 (0x3CD8C6A62C4548A392C0553F36C401D7)
Complete name : Boy Kills World 2023 720p AMZN WEB-DL DDP5 1 H 264-BYNDR.mkv
Format : Matroska
Format version : Version 4
File size : 2.67 GiB
Duration : 1 h 50 min
Overall bit rate : 3 456 kb/s
Frame rate : 23.976 FPS
Writing application : mkvmerge v83.0 ('Circle Of Friends') 64-bit
Writing library : libebml v1.4.5 + libmatroska v1.7.1

Video
ID : 1
Format : AVC
Format/Info : Advanced Video Codec
Format profile : [email protected]
Format settings : CABAC / 4 Ref Frames
Format settings, CABAC : Yes
Format settings, Reference frames : 4 frames
Codec ID : V_MPEG4/ISO/AVC
Duration : 1 h 50 min
Bit rate mode : Constant
Bit rate : 2 747 kb/s
Nominal bit rate : 4 000 kb/s
Width : 1 248 pixels
Height : 520 pixels
Display aspect ratio : 2.40:1
Frame rate mode : Constant
Frame rate : 23.976 (24000/1001) FPS
Color space : YUV
Chroma subsampling : 4:2:0
Bit depth : 8 bits
Scan type : Progressive
Bits/(Pixel*Frame) : 0.177
Stream size : 2.12 GiB (79%)
Default : Yes
Forced : No
Color range : Limited
Color primaries : BT.709
Transfer characteristics : BT.709
Matrix coefficients : BT.709

Audio
ID : 2
Format : E-AC-3
Format/Info : Enhanced AC-3
Commercial name : Dolby Digital Plus
Codec ID : A_EAC3
Duration : 1 h 50 min
Bit rate mode : Constant
Bit rate : 640 kb/s
Channel(s) : 6 channels
Channel layout : L R C LFE Ls Rs
Sampling rate : 48.0 kHz
Frame rate : 31.250 FPS (1536 SPF)
Compression mode : Lossy
Stream size : 507 MiB (19%)
Language : English
Service kind : Complete Main
Default : Yes
Forced : No

Text #1
ID : 3
Format : UTF-8
Codec ID : S_TEXT/UTF8
Codec ID/Info : UTF-8 Plain Text
Language : English
Default : No
Forced : Yes

Text #2
ID : 4
Format : UTF-8
Codec ID : S_TEXT/UTF8
Codec ID/Info : UTF-8 Plain Text
Language : English
Default : No
Forced : No

Text #3
ID : 5
Format : UTF-8
Codec ID : S_TEXT/UTF8
Codec ID/Info : UTF-8 Plain Text
Title : SDH
Language : English
Default : No
Forced : No

Text #4
ID : 6
Format : UTF-8
Codec ID : S_TEXT/UTF8
Codec ID/Info : UTF-8 Plain Text
Title : Canadian
Language : French
Default : No
Forced : No

Menu
00:00:00.000 : en:Scene 01
01:43:54.958 : en:End Credits

Download Boy Kills World 2023 720p AMZN WEB-DL DDP5 1 H 264-BYNDR torrent


Related Torrents

Added  Size  Health
Download Magnet link   Boy Kills World (2023) [Mongolian Dubbed] 1080p WEB-DLRip TeeWee in Highres Movies , by
TeeWee
1m 4.99 GB 1 0
Download Magnet link   Boy Kills World (2023) [Azerbaijan Dubbed] 1080p WEB-DLRip TeeWee in Highres Movies , by
TeeWee
1m 4.99 GB 1 0
Download Magnet link   Boy.Kills.World.2023.1080p.WEBRip.DDP5.1.x265.10bit-GalaxyRG265 in Highres Movies , by
spurpick_33
1m 2.1 GB 261 66
Download Magnet link   Boy.Kills.World.2023.720p.WEBRip.x264-LAMA in Highres Movies , by
Satyr22
1m 797.6 MB 1 14
Download Magnet link   Boy.Kills.World.2023.720p.WEBRip.800MB.x264-GalaxyRG in Highres Movies , by
NP_Bones
1m 797.6 MB 753 151




Home - Browse Torrents
ExtraTorrent.st is in compliance with copyrights
2024 ExtraTorrent.st